Batman v Superman Dawn of Justice English Download Movie Torrent

ADOBE PHOTOSHOP CS6 x86 FULL Download
May 14, 2016
ReFX Nexus v2 Update Choupette Download Torrent
May 15, 2016

Batman v Superman Dawn of Justice
Batman v Superman Dawn of Justice English Download Movie Torrent

35 Seeds 25 Peers
Share Ratio

Clean torrent Batman v Superman Dawn of Justice

Video: HDCAM Peru

Audio: THX Th0ravenger-line audio amazing (uploaders and ET are welcome to copy our resources, to reach its own sources impress their fans in the copy, please credit us!)

remember:

This video is the full version, except that there is 3 seconds remaining call, which used to be a problem :)

overall

Format: Matroska

File Size: GIB

Duration: 2h 23mn

Bitrate mode General: Variable

total bit rate: 197 Kbps 2

Encoded date: 28/03/2016 03:14:17 UTC

writing application: mkvmerge (All of the above) 64bit

Writing library: libebml + libmatroska

video

ID: 1

Format: MPEG Video

Format version: Version 2

Profile format:

panoramic format, PVOD: Yes

panoramic format, Matrix: Custom

panoramic format, GOP: M = 3, = 18

panoramic format, photo struc: Table

Codec ID: V_MPEG2

Codec ID / Info: MPEG 1 or 2 Video

Duration: 2h 23mn

Bitrate mode Variable

bit rate: 000 Kbps 2

The maximum bit rate: 200 Kbps 9

Width: 720 pixels

Length: 480

Display Aspect Ratio: 16: 9

mode frame rate: Variable

Frame rate: (30000/1001) FPS

Standard: NTSC

Color space: YUV

Chroma subsampling 4: 2: 0

Bit Depth: 8 bits

Type of scanning: Twisted

Scan order: Top Field First

Compression mode: Lossy

Bits / (Pixel * Frame):

post time of the first chapter: 00: 00: 00: 00

Source principle time: image head group

GOP, open / closed Open

GOP, open / closed first From: Closed

Stream size: GIB (91%)

library writing: TMPGEnc Video Mastering Chat 5 version.

Standard: Yes

Forced: No

base Color: NTSC

transfer characteristics:

coefficients of the matrix:

radio

State: 2

Format: AC-3

Format / Info: Audio Coding 3

Expansion Mode: CM (complete main)

panoramic format, Big endianness

Codec ID: A_AC3

Duration: 2h 23mn

Bitrate mode: constant

bit rate: 192 Kbps

Channel (s): 2 channels

The channel positions: Front: LR

sampling rate: KHz

Frame rate: fps (SPF 1536)

Compression mode: Lossy

Stream size: 197 MiB (9%)

Standard: Yes

Forced: No

scenes:

Batman v Superman Dawn of Justice

Get uTorrent

Torrent rating 45 0

d0afc

Batman v Superman Dawn of Justice
Batman v Superman Dawn of Justice English Download Movie Torrent

35 Seeds 25 Peers
Share Ratio

Clean torrent Batman v Superman Dawn of Justice

Video: HDCAM Peru

Audio: THX Th0ravenger-line audio amazing (uploaders and ET are welcome to copy our resources, to reach its own sources impress their fans in the copy, please credit us!)

remember:

This video is the full version, except that there is 3 seconds remaining call, which used to be a problem 🙂

overall

Format: Matroska

File Size: GIB

Duration: 2h 23mn

Bitrate mode General: Variable

total bit rate: 197 Kbps 2

Encoded date: 28/03/2016 03:14:17 UTC

writing application: mkvmerge (All of the above) 64bit

Writing library: libebml + libmatroska

video

ID: 1

Format: MPEG Video

Format version: Version 2

Profile format:

panoramic format, PVOD: Yes

panoramic format, Matrix: Custom

panoramic format, GOP: M = 3, = 18

panoramic format, photo struc: Table

Codec ID: V_MPEG2

Codec ID / Info: MPEG 1 or 2 Video

Duration: 2h 23mn

Bitrate mode Variable

bit rate: 000 Kbps 2

The maximum bit rate: 200 Kbps 9

Width: 720 pixels

Length: 480

Display Aspect Ratio: 16: 9

mode frame rate: Variable

Frame rate: (30000/1001) FPS

Standard: NTSC

Color space: YUV

Chroma subsampling 4: 2: 0

Bit Depth: 8 bits

Type of scanning: Twisted

Scan order: Top Field First

Compression mode: Lossy

Bits / (Pixel * Frame):

post time of the first chapter: 00: 00: 00: 00

Source principle time: image head group

GOP, open / closed Open

GOP, open / closed first From: Closed

Stream size: GIB (91%)

library writing: TMPGEnc Video Mastering Chat 5 version.

Standard: Yes

Forced: No

base Color: NTSC

transfer characteristics:

coefficients of the matrix:

radio

State: 2

Format: AC-3

Format / Info: Audio Coding 3

Expansion Mode: CM (complete main)

panoramic format, Big endianness

Codec ID: A_AC3

Duration: 2h 23mn

Bitrate mode: constant

bit rate: 192 Kbps

Channel (s): 2 channels

The channel positions: Front: LR

sampling rate: KHz

Frame rate: fps (SPF 1536)

Compression mode: Lossy

Stream size: 197 MiB (9%)

Standard: Yes

Forced: No

scenes:

Batman v Superman Dawn of Justice

Get uTorrent

Torrent rating 45 0

Leave a Reply

Your email address will not be published. Required fields are marked *