Central Intelligence 2016 DVDRip pirate Free Torrent

Love From Kampung 2017 license download movie torrent
January 25, 2017
Autodesk AutoCAD 2016 32 Bit CuTieLeTz download free torrent
January 26, 2017

Central Intelligence 2016
Central Intelligence 2016 DVDRip pirate Free Torrent

50 Seeds 46 Peers
Share Ratio

Clean torrent Central Intelligence 2016

video

ID: 1

Format: AVC

Format / Info: Advanced Video Codec

Profile format:

the definition, format CABAC: Yes

definition of the format, rephrase: 4 frames

Codec ID: avc1

Codec ID / Info: Advanced Video Coding

Duration: 1 hour 51 min.

Bitrate: 4500 Kbps

Width: 1920 pixels

Height: 796 pixels

Image ratio :: 1

frame rate mode: Constant

frame rate: (23976/1000) FPS

Color space: YUV

Chroma sub-sampling 4: 2: 0

Bit Depth: 8 bits

Type of scanning: Progressive

Bits / (Pixel Border):

nowSize: GIB (95%)

title:

Writing library: x264 core 148 r2597M e86f3a1

encoding settings: CABAC = 1 / ref = 4 / unlock = 1: 0: 0 / analyze = 0x3: 0x113 / I = UMH / subme = 8 / psy = 1 / = psy_rd / mixed_ref = 1/16 = me_range / chroma_me = 1 / = 1 trellis / 8x8dct = 1 / CQM = 0 / dead zone = 21.11 / fast_pskip = 1 / -2 chroma_qp_offset = / = 40 degrees / lookahead_threads = 6 / sliced_threads = 0 / = 0 / decimate = 1/0 = interlaced / bluray_compat = 0 / constrained_intra = 0/3 = bframes / b_pyramid =2 / b_adapt = 2 / b_bias = 0/3 = direct / weightB = 1 / = 2 open_gop / keyint_min = 23/40 = scenecut / intra_refresh = 0 / rc_lookahead = 50 / rc = Apr / mbtree = 1 / bit rate = 4500 / ratetol = / qcomp / qpmin = 0 / qpmax = 69/4 = qpstep / ip_ratio = / = 1

hearing

State: 2

Format: AAC

Format / Info: Advanced Audio Codec

Format profile: LC

Codec ID: 40

Duration: 1 hour 51 min.

bitrate mode: Constant

bitrate: 224 kbps

Channels: 2 channels

channel positions: Front: LR

Sample rate:KHz

Frame Rate: fps (1024 SPF)

Compression mode: Lossy

Stream size: 179 MiB (5%)

title:

english

Standard: Yes

Otherwise the group: 1

Central Intelligence 2016

Get uTorrent

Torrent rating 45 2

d0afc

Central Intelligence 2016
Central Intelligence 2016 DVDRip pirate Free Torrent

50 Seeds 46 Peers
Share Ratio

Clean torrent Central Intelligence 2016

video

ID: 1

Format: AVC

Format / Info: Advanced Video Codec

Profile format:

the definition, format CABAC: Yes

definition of the format, rephrase: 4 frames

Codec ID: avc1

Codec ID / Info: Advanced Video Coding

Duration: 1 hour 51 min.

Bitrate: 4500 Kbps

Width: 1920 pixels

Height: 796 pixels

Image ratio :: 1

frame rate mode: Constant

frame rate: (23976/1000) FPS

Color space: YUV

Chroma sub-sampling 4: 2: 0

Bit Depth: 8 bits

Type of scanning: Progressive

Bits / (Pixel Border):

nowSize: GIB (95%)

title:

Writing library: x264 core 148 r2597M e86f3a1

encoding settings: CABAC = 1 / ref = 4 / unlock = 1: 0: 0 / analyze = 0x3: 0x113 / I = UMH / subme = 8 / psy = 1 / = psy_rd / mixed_ref = 1/16 = me_range / chroma_me = 1 / = 1 trellis / 8x8dct = 1 / CQM = 0 / dead zone = 21.11 / fast_pskip = 1 / -2 chroma_qp_offset = / = 40 degrees / lookahead_threads = 6 / sliced_threads = 0 / = 0 / decimate = 1/0 = interlaced / bluray_compat = 0 / constrained_intra = 0/3 = bframes / b_pyramid =2 / b_adapt = 2 / b_bias = 0/3 = direct / weightB = 1 / = 2 open_gop / keyint_min = 23/40 = scenecut / intra_refresh = 0 / rc_lookahead = 50 / rc = Apr / mbtree = 1 / bit rate = 4500 / ratetol = / qcomp / qpmin = 0 / qpmax = 69/4 = qpstep / ip_ratio = / = 1

hearing

State: 2

Format: AAC

Format / Info: Advanced Audio Codec

Format profile: LC

Codec ID: 40

Duration: 1 hour 51 min.

bitrate mode: Constant

bitrate: 224 kbps

Channels: 2 channels

channel positions: Front: LR

Sample rate:KHz

Frame Rate: fps (1024 SPF)

Compression mode: Lossy

Stream size: 179 MiB (5%)

title:

english

Standard: Yes

Otherwise the group: 1

Central Intelligence 2016

Get uTorrent

Torrent rating 45 2

Leave a Reply

Your email address will not be published. Required fields are marked *